VİDEO - MP3

AçıkLınıcak Bişey oLursa AçıkLarız.!!
 
AnasayfaTakvimSSSAramaÜye ListesiKullanıcı GruplarıKayıt OlGiriş yap

Paylaş | 
 

 Anestezİ / Awake / DVDRip.XviD / TR-DxS / 2 Alternatif / Vizyon: 21 Mart 2008

Aşağa gitmek 
YazarMesaj
bLue.tK`
Admin
Admin
avatar

Erkek Mesaj Sayısı : 174
Yaş : 28
NereLisin : Rize/İkizdere
Kayıt tarihi : 18/01/09

MesajKonu: Anestezİ / Awake / DVDRip.XviD / TR-DxS / 2 Alternatif / Vizyon: 21 Mart 2008   Salı Ocak 20, 2009 3:05 pm



Awake (2007)

imdb puanı : 6.5/10
Yönetmen Joby Harold, Joby Harold
Senaryo Joby Harold
Oyuncular : Jessica Alba, Hayden Christensen, Christopher McDonald,
Lena Olin, Sam Robards, Arliss Howard, Steven Hinkle, Fisher Stevens,
Terrence Howard, David Harbour, Court Young, Georgina Chapman, Charlie
Hewson, Joseph Costa
Tür : Dram / Gerilim / Suç Orijinal Adı Awake
Yapımcı Firma GreeneStreet Films
Yapım Yılı 2007
Yapım Ülkesi ABD, Japonca
Dil Türkce
Filmin Süresi 1 saat, 24 dk.

Filmin Resmi Sitesi

AWAKE - OFFICIAL SITE
Vizyon Tarihi 21.03.2008


Konusu

Clay (Christensen), geçirdiği açık kalp ameliyatı
sırasında 'anestezik farkındalık' adı verilen durumu yaşamaktadır. Yani
olup bitenin tamamen farkında olacak şekilde uyanıktır, operasyonu
tüm acısıyla hissedebiliyordur ancak yine anestezinin etkisiyle
vücudu hiçbir şeye tepki gösteremeyecek şekilde
paralize olduğundan, ameliyat ekibinin bundan haberi yoktur.

Clay'in genç karısı Sam (Alba), ameliyat sırasında hayati
kararlar vermek zorunda kalırken, Clay'de kendi zihni içinde
tekinsiz bir yolculuğa çıkar.

İlk kez yönetmen koltuğuna oturan Joby Haroldun imzasını taşıyan
bu gerçeküstü psikolojik gerilim; şimdiden Memento ve
Sixth Sense ile karşılaştırılıyor.

Complete name : Anestezi.2008.TR.DVDRiP.XViD-DxS.avi
Format : AVI
Format/Info : Audio Video Interleave
File size : 701 MiB
Duration : 1h 20mn
Overall bit rate : 1 216 Kbps
Movie name : NEW.Title4.DVDRip
Writing application : Lavf52.17.0
Product : NEW

Video
Format : MPEG-4 Visual
Format profile : Simple@L3
Format settings, BVOP : No
Format settings, QPel : No
Format settings, GMC : No warppoints
Format settings, Matrix : Default
Codec ID : XVID
Codec ID/Hint : XviD
Duration : 1h 20mn
Bit rate : 1 075 Kbps
Width : 656 pixels
Height : 290 pixels
Display aspect ratio : 2.25
Frame rate : 23.976 fps
Resolution : 24 bits
Colorimetry : 4:2:0
Scan type : Progressive
Bits/(Pixel*Frame) : 0.236
Stream size : 620 MiB (88%)
Writing library : XviD 1.1.2 (UTC 2006-11-01)

Audio
Format : MPEG Audio
Format version : Version 1
Format profile : Layer 3
Codec ID : 55
Codec ID/Hint : MP3
Duration : 1h 20mn
Bit rate mode : Constant
Bit rate : 128 Kbps
Channel(s) : 2 channels
Sampling rate : 48.0 KHz
Resolution : 16 bits
Stream size : 73.8 MiB (11%)
Alignment : Aligned on interleaves
Interleave, duration : 24 ms (0.58 video frame)
Writing library : LAME3.97

www.derinport.in-Anestezi.2008.TR.DVDRiP.XViD-DxS.avi.html" class="postlink" target="_blank" rel="nofollow">http://bitroad.net/download/cabd8476...D-DxS.avi.html
Sayfa başına dön Aşağa gitmek
Kullanıcı profilini gör http://mp3-mekani.yetkinforum.com
 
Anestezİ / Awake / DVDRip.XviD / TR-DxS / 2 Alternatif / Vizyon: 21 Mart 2008
Sayfa başına dön 
1 sayfadaki 1 sayfası

Bu forumun müsaadesi var:Bu forumdaki mesajlara cevap veremezsiniz
VİDEO - MP3 :: Yerli Divx / Film indir :: Tek Link Filmler-
Buraya geçin: